+ ShareSpark.net »  :::: Bollywood Zone » Bollywood Movies (Original Rips) » Small Size Bollywood Movies
|- Fukrey (2013) Brrip - X264 - AC3 - 5.1 - [475 MB ] - Krishna Malhotra - Team SSX

Mobile Recharge Offer 20% Off

Fukrey (2013) Brrip - X264 - AC3 - 5.1 - [475 MB ] - Krishna Malhotra - Team SSX

0 Members and 1 Guest are viewing this topic.

September 11, 2013, 12:10:37 AM
  • Normal Member
  • Special Member
  • ****
  • Topic Author
  • Thank You: 184
  • Reputation: 122
  • Activity:
    0%
  • Country: in
  • Posts: 801
  • Topics: 302
  • Join Date: Aug 2013
  • Expertises:
  • Bollywood Movies
  • Dubbed Movies
  • Hollywood Movies
Fukrey (2013) Brrip - X264 - AC3 - 5.1 - [475 MB ] - Krishna Malhotra - Team SSX








CLICK LOGO FOR







General
Unique ID                                : 201885435324111767633743932995955653417 (0x97E1B8742BE56C5688436B785F44FB29)
Complete name                            : Fukrey (2013) Brrip - X264 - AC3 - 5.1 -  [475 MB ] - Krishna Malhotra - Team SSX.mkv
Format                                   : Matroska
Format version                           : Version 4 / Version 2
File size                                : 476 MiB
Duration                                 : 2h 20mn
Overall bit rate                         : 473 Kbps
Movie name                               : Fukrey (2013) Brrip - X264 - AC3 - 5.1 -  [475 MB ] - Krishna Malhotra - Team SSX
Encoded date                             : UTC 2013-09-10 10:01:56
Writing application                      : mkvmerge v6.3.0 ('You can't stop me!') built on Jun 28 2013 20:09:41
Writing library                          : libebml v1.3.0 + libmatroska v1.4.0






Video
ID                                       : 1
Format                                   : AVC
Format/Info                              : Advanced Video Codec
Format profile                           : [email protected]
Format settings, CABAC                   : Yes
Format settings, ReFrames                : 4 frames
Codec ID                                 : V_MPEG4/ISO/AVC
Duration                                 : 2h 20mn
Bit rate                                 : 375 Kbps
Width                                    : 720 pixels
Height                                   : 304 pixels
Display aspect ratio                     : 2.35:1
Frame rate mode                          : Constant
Frame rate                               : 24.000 fps
Color space                              : YUV
Chroma subsampling                       : 4:2:0
Bit depth                                : 8 bits
Scan type                                : Progressive
Bits/(Pixel*Frame)                       : 0.071
Stream size                              : 370 MiB (78%)
Title                                    : Fukrey (2013) Brrip - X264 - AC3 - 5.1 -  [475 MB ] - Krishna Malhotra - Team SSX
Writing library                          : x264 core 130 r2273 b3065e6
Encoding settings                        : cabac=1 / ref=3 / deblock=1:0:0 / analyse=0x3:0x113 / me=hex / subme=7 / psy=1 / psy_rd=1.00:0.00 / mixed_ref=1 / me_range=16 / chroma_me=1 / trellis=1 / 8x8dct=1 / cqm=0 / deadzone=21,11 / fast_pskip=1 / chroma_qp_offset=-2 / threads=3 / lookahead_threads=1 / sliced_threads=0 / nr=0 / decimate=1 / interlaced=0 / bluray_compat=0 / constrained_intra=0 / bframes=3 / b_pyramid=2 / b_adapt=1 / b_bias=0 / direct=1 / weightb=1 / open_gop=0 / weightp=2 / keyint=240 / keyint_min=24 / scenecut=40 / intra_refresh=0 / rc_lookahead=40 / rc=2pass / mbtree=1 / bitrate=375 / ratetol=1.0 / qcomp=0.60 / qpmin=0 / qpmax=69 / qpstep=4 / cplxblur=20.0 / qblur=0.5 / vbv_maxrate=17500 / vbv_bufsize=17500 / nal_hrd=none / ip_ratio=1.40 / aq=1:1.00
Language                                 : English
Default                                  : Yes
Forced                                   : No
Color primaries                          : BT.709
Transfer characteristics                 : BT.709
Matrix coefficients                      : BT.709







Audio
ID                                       : 2
Format                                   : AC-3
Format/Info                              : Audio Coding 3
Mode extension                           : CM (complete main)
Format settings, Endianness              : Big
Codec ID                                 : A_AC3
Duration                                 : 2h 20mn
Bit rate mode                            : Constant
Bit rate                                 : 96.0 Kbps
Channel(s)                               : 6 channels
Channel positions                        : Front: L C R, Side: L R, LFE
Sampling rate                            : 48.0 KHz
Bit depth                                : 16 bits
Compression mode                         : Lossy
Stream size                              : 96.8 MiB (20%)
Title                                    : Krishna Malhotra
Language                                 : Hindi
Default                                  : Yes
Forced                                   : No




SAMPLE WITH



















































 :download:





















SaMpLe


Share this topic on FacebookShare this topic on GoogleShare this topic on MySpaceShare this topic on TwitterShare this topic on Yahoo

« Last Edit: September 11, 2013, 12:12:13 AM by Krishna Malhotra »



October 08, 2013, 01:29:33 AM
Reply #1
  • Begginer
  • **
  • Thank You: 11
  • Reputation: 5
  • Activity:
    0%
  • Posts: 74
  • Topics: 7
  • Join Date: Sep 2013
  • ShareSpark Member
Upload The Following Movies

Zanjeer (2013)-Bluray Or Bluray Rip Or DVD Rip

Madras Cafe (2013)-Bluray Or Bluray Rip Or DVD Rip

Rabba Main Kya Karoon (2013)-Bluray Or Bluray Rip Or DVD Rip

Satayagraha (2013)-Bluray Or Bluray Rip Or DVD Rip

Please Upload In 300MB-500MB Small Size

October 08, 2013, 01:30:43 AM
Reply #2
  • Begginer
  • **
  • Thank You: 11
  • Reputation: 5
  • Activity:
    0%
  • Posts: 74
  • Topics: 7
  • Join Date: Sep 2013
  • ShareSpark Member

October 08, 2013, 01:32:06 AM
Reply #3
  • Addic7ed (Inactive)
  • Hot Member
  • ****
  • Thank You: 345
  • Reputation: 196
  • Activity:
    0%
  • Country: in
  • Posts: 633
  • Topics: 219
  • Join Date: Jun 2013
  • ShareSpark Member
HOLLYWOOD DUAL AUDIO MEGA PACK [1000 MOVIES] COMING SOON

January 18, 2018, 11:02:25 PM
Reply #4
  • Devoted Member
  • **
  • Thank You: 0
  • Reputation: 2
  • Activity:
    7.8%
  • Country: in
  • Posts: 182
  • Topics: 2
  • Join Date: Dec 2016
  • ShareSpark Member
Plz upload file again.......all sites have removed .......
plz........ bdupload link add......

January 30, 2018, 02:40:01 PM
Reply #5
  • Devoted Member
  • **
  • Thank You: 0
  • Reputation: 2
  • Activity:
    7.8%
  • Country: in
  • Posts: 182
  • Topics: 2
  • Join Date: Dec 2016
  • ShareSpark Member

February 19, 2018, 12:32:01 AM
Reply #6
  • Devoted Member
  • **
  • Thank You: 0
  • Reputation: 2
  • Activity:
    7.8%
  • Country: in
  • Posts: 182
  • Topics: 2
  • Join Date: Dec 2016
  • ShareSpark Member
File not found.....Plz upload again.........
Plz upload with bdupload link.......

April 06, 2018, 07:40:54 AM
Reply #7
  • Devoted Member
  • **
  • Thank You: 0
  • Reputation: 2
  • Activity:
    7.8%
  • Country: in
  • Posts: 182
  • Topics: 2
  • Join Date: Dec 2016
  • ShareSpark Member

Tags:
 

Related Topics




Back to top