+ ShareSpark.net »  :::: Bollywood Zone » Bollywood Movies (Original Rips) » Small Size Bollywood Movies
|- Sniff 2017 HD Hindi GOPISAHI

Gif Cards 25% Off

Sniff 2017 HD Hindi GOPISAHI

0 Members and 1 Guest are viewing this topic.

January 22, 2018, 01:19:27 PM
  • Addic7ed
  • Special Member
  • ****
  • Topic Author
  • Thank You: 394
  • Reputation: 89
  • Activity:
    33.6%
  • Country: in
  • Posts: 815
  • Topics: 770
  • Join Date: Oct 2013
  • ShareSpark Member

Format                         : Matroska
Format version                 : Version 4 / Version 2
File size                      : 213 MiB
Duration                       : 1 h 28 min
Overall bit rate               : 334 kb/s
Movie name                     : Sniff 2017 GOPISAHI

Video
Format                         : AVC
Codec ID                       : V_MPEG4/ISO/AVC
Duration                       : 1 h 28 min
Bit rate                       : 250 kb/s
Width                          : 720 pixels
Height                         : 304 pixels
Display aspect ratio           : 2.35:1
Frame rate mode                : Constant
Frame rate                     : 24.000 FPS
Stream size                    : 159 MiB (75%)
Writing library                : x264 core 155 r2893 b00bcaf
Language                       : Hindi

Audio 2
Format                         : AAC
Duration                       : 1 h 28 min
Bit rate                       : 82.4 kb/s
Channel(s)                     : 6 channels
Channel positions              : Front: L C R, Side: L R, LFE
Sampling rate                  : 44.1 kHz
Frame rate                     : 43.066 FPS (1024 SPF)
Stream size                    : 52.4 MiB (25%)
Language                       : Hindi





Share this topic on FacebookShare this topic on GoogleShare this topic on MySpaceShare this topic on TwitterShare this topic on Yahoo



Thanks given by:


January 22, 2018, 01:28:40 PM
Reply #1
  • Elite Moderator
  • Legend Member
  • ****
  • Thank You: 1996
  • Reputation: 286
  • Activity:
    0.4%
  • Country: in
  • Posts: 3704
  • Topics: 2845
  • Join Date: Sep 2016
  • (: EnJOy D LiFe :)
 :thank:  Moving this to "Small Size Bollywood Movies"
* BUSY *


Tags:
 

Related Topics

  Subject / Started by Replies Last post
2 Replies
863 Views
Last post January 18, 2018, 02:52:42 PM
by special26
0 Replies
478 Views
Last post January 18, 2018, 02:56:52 PM
by eerwerw
0 Replies
439 Views
Last post January 21, 2018, 03:06:25 PM
by PSYCHO
4 Replies
802 Views
Last post January 22, 2018, 09:03:51 PM
by Abhisona
1 Replies
453 Views
Last post January 30, 2018, 12:52:17 AM
by JackRoSe



Back to top