+ ShareSpark.net »  :::: Bollywood Zone » Bollywood Movies (Original Rips) » Small Size Bollywood Movies
|- Half Girlfriend (2017) - HDRip x264 Mp3 400MB - BiRoHo

DTH Recharges 20% Back
  • Half Girlfriend (2017) - HDRip x264 Mp3 400MB - BiRoHo 1 1
Currently:  

Half Girlfriend (2017) - HDRip x264 Mp3 400MB - BiRoHo

0 Members and 1 Guest are viewing this topic.

December 13, 2017, 02:28:23 PM
  • ɱöƧƭ Ѡᾃŋŧęđ ƪǿᶌɛᴙ
  • Elite Moderator
  • Elite Forces
  • ****
  • Topic Author
  • Thank You: 361
  • Reputation: 50
  • Activity:
    0%
  • Posts: 1247
  • Topics: 1017
  • Join Date: Oct 2013
  • ï αϻ ĮőϨƐƦ


Half Girlfriend (2017) - HDRip x264 Mp3 400MB - BiRoHo














Quote

Format version              : Version 4 / Version 2
File size                   : 381 MiB
Duration                    : 2h 9mn
Overall bit rate            : 412 Kbps

Video
ID                          : 1
Format                      : AVC
Format/Info                 : Advanced Video Codec
Format profile              : [email protected]
Format settings, CABAC      : Yes
Format settings, ReFrames   : 4 frames
Codec ID                    : V_MPEG4/ISO/AVC
Duration                    : 2h 9mn
Bit rate                    : 350 Kbps
Width                       : 960 pixels
Height                      : 540 pixels
Display aspect ratio        : 16:9
Frame rate mode             : Constant
Frame rate                  : 25.000 fps
Color space                 : YUV
Chroma subsampling          : 4:2:0
Bit depth                   : 8 bits
Scan type                   : Progressive
Bits/(Pixel*Frame)          : 0.027
Stream size                 : 314 MiB (82%)


Audio
ID                          : 2
Format                      : MPEG Audio
Format version              : Version 1
Format profile              : Layer 3
Mode                        : Joint stereo
Codec ID                    : A_MPEG/L3
Codec ID/Hint               : MP3
Duration                    : 2h 9mn
Bit rate mode               : Constant
Bit rate                    : 64.0 Kbps
Channel(s)                  : 2 channels
Sampling rate               : 44.1 KHz
Compression mode            : Lossy
Delay relative to video     : -16ms
Stream size                 : 59.2 MiB (16%)
Language                    : Hindi
Default                     : Yes
Forced                      : No
























uploadboy


Uptobox


bdupload


indishare



Share this topic on FacebookShare this topic on GoogleShare this topic on MySpaceShare this topic on TwitterShare this topic on Yahoo

« Last Edit: December 13, 2017, 02:28:54 PM by ♥ βịῤʊʅ βἄѤƧђᶖ ♥ »


Thanks given by:


Tags:
 

Related Topics




Back to top