+ ShareSpark.net »  :::: Bollywood Zone » Bollywood Movies (Original Rips) » Small Size Bollywood Movies
|- Judwaa 2 (2017) 480p Untouched WEBHD - AVC - AAC - Ranvijay

Subscribe and Save

Judwaa 2 (2017) 480p Untouched WEBHD - AVC - AAC - Ranvijay

0 Members and 1 Guest are viewing this topic.

November 29, 2017, 01:15:17 AM
  • Global Moderator
  • Legend Member
  • *****
  • Topic Author
  • Thank You: 7299
  • Reputation: 1599
  • Activity:
    100%
  • Country: in
  • Posts: 4447
  • Topics: 3705
  • Join Date: Jan 2014
  • ıllıllı ѕмoĸιng ιѕ good ғor нealтн ıllıllı :)
Judwaa 2 (2017) 480p Untouched WEBHD - AVC - AAC - Ranvijay



:info:

Quote
Format                                   : MPEG-4
Format profile                           : Base Media
Codec ID                                 : isom (isom/iso2/avc1/iso6/mp41)
File size                                : 1.39 GiB
Duration                                 : 2 h 19 min
Overall bit rate                         : 1 429 kb/s
Writing application                      : Lavf56.25.101

Video
ID                                       : 1
Format                                   : AVC
Format/Info                              : Advanced Video Codec
Format profile                           : [email protected]
Format settings, CABAC                   : No
Format settings, RefFrames               : 1 frame
Codec ID                                 : avc1
Codec ID/Info                            : Advanced Video Coding
Duration                                 : 2 h 19 min
Bit rate mode                            : Constant
Bit rate                                 : 1 300 kb/s
Width                                    : 720 pixels
Height                                   : 404 pixels
Display aspect ratio                     : 16:9
Frame rate mode                          : Variable
Frame rate                               : 25.000 FPS
Minimum frame rate                       : 0.250 FPS
Maximum frame rate                       : 25.000 FPS
Color space                              : YUV
Chroma subsampling                       : 4:2:0
Bit depth                                : 8 bits
Scan type                                : Progressive
Bits/(Pixel*Frame)                       : 0.179
Stream size                              : 1.26 GiB (91%)

Audio
ID                                       : 2
Format                                   : AAC
Format/Info                              : Advanced Audio Codec
Format profile                           : LTP
Codec ID                                 : 40
Duration                                 : 2 h 19 min
Bit rate                                 : 125 kb/s
Channel(s)                               : 2 channels
Channel(s)_Original                      : 1 channel
Channel positions                        : Front: C
Sampling rate                            : 64.0 kHz
Frame rate                               : 62.500 FPS (1024 SPF)
Compression mode                         : Lossy
Stream size                              : 125 MiB (9%)
Default                                  : Yes
Alternate group                          : 1


:ss:








:download:

Quote










File Leeched & Uploaded From




Don't walk as you are king, walk as you don't care who the king is....!!
Never argue with an idiot. They drag you down to their level and then beat you with experience?

Share this topic on FacebookShare this topic on GoogleShare this topic on MySpaceShare this topic on TwitterShare this topic on Yahoo




Don't walk as you are king, walk as you don't care who the king is....!!

Tags:
 

Related Topics




Back to top