+ ShareSpark.net »  :::: Bollywood Zone » Bollywood Movies (Original Rips) » Small Size Bollywood Movies
|- Dhanak (2016) - AAC-X264 -DVD RIP -(496mb only)

Subscribe and Save

Dhanak (2016) - AAC-X264 -DVD RIP -(496mb only)

0 Members and 1 Guest are viewing this topic.

January 14, 2017, 01:31:05 PM
  • Semi Newbie
  • **
  • Topic Author
  • Thank You: 6
  • Reputation: 2
  • Activity:
    0%
  • Country: in
  • Posts: 11
  • Topics: 11
  • Join Date: Sep 2014
  • ShareSpark Member




Code: [Select]
Video
ID                                       : 1
Format                                   : AVC
Format/Info                              : Advanced Video Codec
Format profile                           : [email protected]
Format settings, CABAC                   : Yes
Format settings, ReFrames                : 4 frames
Codec ID                                 : V_MPEG4/ISO/AVC
Duration                                 : 1 h 55 min
Bit rate                                 : 552 kb/s
Width                                    : 704 pixels
Height                                   : 304 pixels
Display aspect ratio                     : 2.35:1
Frame rate mode                          : Constant
Frame rate                               : 23.976 (24000/1001) FPS
Color space                              : YUV
Chroma subsampling                       : 4:2:0
Bit depth                                : 8 bits
Scan type                                : Progressive
Bits/(Pixel*Frame)                       : 0.108
Stream size                              : 456 MiB (92%)
Writing library                          : x264 core 148 r2638 7599210


Audio
ID                                       : 2
Format                                   : AAC
Format/Info                              : Advanced Audio Codec
Format profile                           : HE-AAC / LC
Codec ID                                 : A_AAC
Duration                                 : 1 h 55 min
Bit rate                                 : 48.0 kb/s
Channel(s)                               : 2 channels
Channel positions                        : Front: L R
Sampling rate                            : 48.0 kHz / 24.0 kHz
Frame rate                               : 23.438 FPS (1024 spf)
Compression mode                         : Lossy
Delay relative to video                  : 31 ms
Stream size                              : 39.4 MiB (8%)
Default                                  : Yes
Forced                                   : No












if you want me to post more small size movie please support me via bitcoin -->  1PMiYpNLuumybptW3DLDKrHmMqFKtSNoPF


Share this topic on FacebookShare this topic on GoogleShare this topic on MySpaceShare this topic on TwitterShare this topic on Yahoo



Thanks given by:


June 15, 2017, 04:38:08 PM
Reply #1
  • Hot Member
  • ***
  • Thank You: 25
  • Reputation: 8
  • Activity:
    7%
  • Country: bd
  • Posts: 569
  • Topics: 12
  • Join Date: Jun 2017
  • ShareSpark Member

Tags:
 

Related Topics

  Subject / Started by Replies Last post
0 Replies
703 Views
Last post May 17, 2016, 05:50:26 PM
by -Ð@Rk.ÐèVi£-
1 Replies
613 Views
Last post June 19, 2016, 10:10:15 PM
by Rj_Manik
0 Replies
1087 Views
Last post August 25, 2016, 08:19:09 PM
by -Ð@Rk.ÐèVi£-
0 Replies
603 Views
Last post August 26, 2016, 10:15:55 AM
by -Ð@Rk.ÐèVi£-
3 Replies
1154 Views
Last post November 11, 2016, 06:17:18 PM
by PRITTS



Back to top